#TITLE:Hoshizora no Waltz;
#SUBTITLE:- Kimi ga Nozomu Eien 2nd Ending;
#ARTIST:Minami Kuribayashi;
#TITLETRANSLIT:;
#SUBTITLETRANSLIT:;
#ARTISTTRANSLIT:;
#CREDIT:Asahina-san;
#BANNER:videobanner.avi;
#BACKGROUND:background 1.png;
#LYRICSPATH:Hoshizora no Waltz.lrc;
#CDTITLE:Asahina-San.png;
#MUSIC:Hoshizora no Waltz.mp3;
#OFFSET:1.552;
#SAMPLESTART:32.552;
#SAMPLELENGTH:29.240;
#SELECTABLE:YES;
#BPMS:0.000=140.000,78.000=144.790,78.500=148.730,79.000=152.030,79.500=140.000;
#STOPS:;
#BGCHANGES:3.625=Hoshizora no Waltz.avi=1.000=1=0=0,
213.500=background 1.png=1.000=1=0=0,
99999=-nosongbg-=1.000=0=0=0 // don't automatically add -songbackground-
;
// cache tags:
#FIRSTBEAT:7.000;
#LASTBEAT:214.000;
#SONGFILENAME:songs/Otaku's Dream 3rd Anime Mix/[Asahina-san] Hoshizora no Waltz - Kimi ga Nozomu Eien ED/Hoshizora no Waltz.sm;
#HASMUSIC:1;
#HASBANNER:1;
#MUSICLENGTH:90.096;
// end cache tags

//---------------dance-single - ----------------
#NOTES:
     dance-single:
     :
     Challenge:
     10:
     0.818,0.948,1.000,0.988,0.089,292.000,135.000,89.000,0.000,0.000:
0000
0000
0000
0000
,
0000
0000
0000
0000
0000
0000
0011
1100
,
0011
0000
1100
0011
,
1100
0000
0000
0000
0000
0000
0000
0000
0000
0000
0000
0000
0110
0000
0000
0000
0000
0000
0000
0000
0000
0000
0000
0000
0120
0000
0000
0000
0000
0000
0000
0000
0000
0000
0000
0000
0000
0000
0000
0000
0000
0000
0000
0000
0000
0000
0000
0030
,
1100
0000
0000
0000
0000
0000
0000
0000
0000
0000
0000
0000
0012
0000
0000
0000
0000
0000
0200
0000
0300
0010
0000
0000
0100
0000
0000
1000
0000
0000
0100
0000
0000
0010
0000
0000
0103
0000
0000
0000
0000
0000
0010
0000
0000
0000
0000
0000
,
0102
0000
0000
0100
0000
0000
0010
0000
0003
0100
0000
0000
1000
0000
0000
0100
0000
0000
0011
0000
0000
0000
0000
0000
,
0110
0000
0000
0000
0000
0000
1100
0000
0000
0000
0000
0000
0202
0003
0000
0010
0000
0000
1000
0000
0000
0010
0000
0000
,
0001
0000
0000
0000
0000
0000
0001
0010
0002
0000
0000
0000
0303
0000
0000
0000
0000
0000
1000
0000
0000
0100
0000
0000
,
1002
1003
0110
0101
,
1010
0000
1100
0000
0210
0001
0010
1300
,
0101
0010
2020
0000
0000
3030
0110
0001
,
0102
0000
0000
0000
0000
0000
1000
0000
0000
0003
0000
0000
0120
0000
0000
0000
0030
0000
0100
0000
0000
0000
0000
0000
0210
0000
0000
0000
0300
0000
0010
0000
0000
0000
0000
0000
1100
0000
0000
0000
0000
0000
0000
0000
0000
0000
0000
0000
,
0110
0000
0101
0000
0012
0100
1000
0103
,
0110
0010
2100
0010
0002
3003
0110
0101
,
2010
0000
0100
0000
0010
0000
3001
0000
0120
0000
0000
0030
0201
0000
0000
0000
,
1300
0000
0100
0000
0210
0001
0010
1300
,
0101
0000
0010
0000
0012
0000
0000
0003
1100
0000
0000
0000
0110
0000
1001
0000
,
0220
0000
0000
0330
1100
0000
0102
1003
,
0210
0000
0000
0300
0010
0000
0000
0000
1010
0000
0000
0000
0010
0000
0000
0000
2100
0000
0000
0000
0010
0000
0000
0000
0001
0000
0000
0000
0010
0000
0000
0000
,
0001
0100
0002
0000
0000
0000
3003
0000
,
0022
0033
0011
0000
0110
0000
0101
0000
1100
0000
0110
0000
0202
0303
0010
0000
,
0001
0000
0010
0000
0100
0000
0010
0000
2020
3030
0010
0000
0101
0000
0010
0000
,
0010
1010
1002
1000
0100
0013
0101
0010
,
0202
0303
0010
0000
1000
0000
0010
0000
0100
0000
0010
0000
0220
0330
0001
0000
,
1000
0010
0100
0001
0102
0000
1000
0000
,
0010
0000
0000
0000
0100
0000
0003
0000
1010
0000
0000
0000
0220
0330
0000
0000
,
0202
0303
0000
0000
0220
0330
0000
0000
2020
3030
0000
0000
0202
0303
0000
0000
,
0220
0330
0000
0000
2200
3300
0000
0000
2200
0000
0000
0000
0000
3300
0010
0000
,
0001
0010
0110
0000
0010
0000
1010
0000
,
0220
0000
0000
0000
0000
0330
0000
0000
0101
0000
0000
0000
1010
0000
0000
0000
,
0010
0000
0110
0000
0202
0000
0303
0010
,
1010
1010
0110
0101
,
0202
0000
0000
0000
0000
0000
0000
0303
1010
0000
0000
0000
0110
0000
0000
0000
,
0101
0000
0000
0000
0110
0000
0000
0000
2020
0000
0000
0000
0000
3030
0110
0000
,
0110
0000
0000
0000
0102
1000
0010
1000
0103
0000
0010
0000
1000
0000
0010
0000
,
1100
0000
0100
0010
0100
0000
0110
0000
0001
0000
0010
0000
2100
0000
0000
0000
,
0000
3000
0000
0000
0101
0000
0000
0000
0220
0000
0000
0000
0000
0000
0330
0000
1001
0000
0000
0000
1000
0000
0000
0000
0100
0000
0000
0000
0010
0000
0000
0000
,
0100
0000
0000
0000
0012
0000
0000
0003
0110
0000
0000
0000
0110
0000
0000
0000
,
2010
0000
0001
0000
0100
0000
0001
0000
0010
0000
0100
0000
0010
3000
0000
0000
,
0101
0110
0220
0330
,
0101
0000
1010
0000
0110
0000
0101
0010
,
1010
0000
0000
0000
0010
0100
0001
0100
0010
0000
0000
0000
0110
0000
0000
0000
,
0001
0000
0000
0000
1010
0000
0000
0000
0010
0100
0001
0100
0010
0000
1010
0000
,
0100
1000
0011
0000
0110
0000
1100
0000
,
2200
0000
0000
0000
0000
3300
0000
0000
0220
0330
0100
0000
0202
0303
0010
0000
,
2020
3030
0100
0000
0220
0330
0100
0000
0202
0000
0000
0000
0303
0000
1010
0000
,
0110
0000
0000
0000
0011
0000
0100
0010
1000
0000
0100
0000
1010
0000
0010
0000
,
0100
0000
0000
0000
0000
0000
0100
0010
0100
0010
1000
0010
0100
0000
0000
0000
,
0000
0110
0210
0300
2100
0001
3010
0100
,
0001
0100
0100
0000
0100
0000
0100
0000
,
0002
0000
0003
0100
0001
0010
2000
0000
,
0000
3001
1100
0000
0110
0000
0011
0000
,
1100
0010
1000
0100
,
0002
0000
0000
0003
0000
0000
0000
0000
;

//---------------dance-single - ----------------
#NOTES:
     dance-single:
     :
     Hard:
     7:
     0.392,0.473,0.022,0.277,0.000,220.000,2.000,25.000,0.000,0.000:
0000
0000
0000
0000
,
0000
0000
0000
0000
0000
0000
0100
0010
,
0200
0000
0000
0300
0010
0000
0100
0000
,
0010
0000
0100
0000
0020
0000
0000
0030
,
0100
0000
0010
0000
0000
0000
0010
1000
,
0010
0000
0010
1000
,
0010
0100
0010
0000
,
0010
0000
2000
0000
0000
3000
0010
0100
,
0010
0100
0001
1000
,
0001
0000
0100
0000
0100
0010
0100
0001
,
0100
0010
0100
0000
1000
0010
1000
0000
,
1000
0100
1000
0100
,
0010
0000
1000
0000
0100
1000
0010
1000
,
0001
1000
0010
0000
0100
0000
0010
0100
,
0010
0100
0001
0100
,
0010
0000
0100
0000
1000
0100
1000
0010
,
1000
0100
2000
0000
3000
0000
0100
0010
,
0100
0010
0100
0010
,
0100
0000
0001
0010
0100
0010
0100
0010
,
0100
0010
0200
0000
0000
0000
0000
0300
,
0010
0100
0010
0100
0010
0100
0220
0330
,
0000
0000
0010
0100
0010
0000
1000
0100
,
1000
0100
2000
0000
3000
0000
0010
1000
,
0010
0100
0010
1000
0010
0100
0010
0100
,
0001
0100
0010
0100
0220
0000
0000
0000
,
0330
0000
0010
0010
,
0100
0100
0010
0010
,
0100
0000
0000
0000
0010
0000
0000
0000
2000
0000
0000
3000
0000
0000
0100
0000
,
0010
0100
0010
0000
0100
0000
0010
0000
,
2000
0000
0000
0000
0000
3000
0000
0000
0010
0000
0000
0000
0100
0000
0000
0000
,
0010
0000
0100
0000
0020
0000
0030
0100
,
0010
0010
0010
0100
,
0020
0000
0000
0030
0100
0000
0010
0000
,
0010
0000
0100
0000
0020
0000
0000
1000
,
1030
0000
0200
0300
0000
0010
1000
0010
,
0200
0000
0000
0310
0100
0010
0100
0000
,
0000
0010
0100
0000
0100
0010
1000
0100
,
1000
0100
1000
0000
0010
0000
0100
0000
,
0020
0000
0000
0000
0000
0000
0000
0030
,
0100
0010
0200
0000
,
0000
0000
0000
0300
1000
0000
0100
0000
,
2000
3010
0100
0001
,
0010
0100
0020
0000
,
0000
0000
0000
0030
0001
0000
0010
0000
,
0002
0000
0000
0003
0010
0000
0001
0000
,
0010
0000
0001
0000
0010
0000
0000
0001
,
0010
0000
0100
0000
0000
0010
0100
0010
,
0200
0000
0000
0310
0100
0010
0100
0000
,
0000
0010
0100
0000
0001
0000
0010
0000
,
0001
0020
0030
0010
,
0100
0000
0000
0100
0010
0100
0010
0000
,
0000
0010
1000
0000
0010
0000
1000
0000
,
0010
1000
0010
0100
,
0002
0000
0000
0000
0000
0000
0000
0000
0000
0000
0000
0000
0000
0000
0000
0000
0000
0000
0000
0000
0000
0000
0000
0000
0000
0000
0000
0000
0000
0000
0000
0000
0000
0000
0000
0000
0000
0000
0000
0000
0000
0000
0000
0000
0000
0000
0000
0000
0000
0003
0000
0000
0000
0000
0000
0000
0000
0000
0000
0000
0000
0000
0000
0000
0000
0000
0000
0000
0000
0000
0000
0000
0000
0000
0000
0000
0000
0000
0000
0000
0000
0000
0000
0000
0000
0000
0000
0000
0000
0000
0000
0000
0000
0000
0000
0000
0000
0000
0000
0000
0000
0000
0000
0000
0000
0000
0000
0000
0000
0000
0000
0000
0000
0000
0000
0000
0000
0000
0000
0000
0000
0000
0000
0000
0000
0000
0000
0000
0000
0000
0000
0000
0000
0000
0000
0000
0000
0000
0000
0000
0000
0000
0000
0000
0000
0000
0000
0000
0000
0000
0000
0000
0000
0000
0000
0000
0000
0000
0000
0000
0000
0000
0000
0000
0000
0000
0000
0000
0000
0000
0000
0000
0000
0000
0000
0000
0000
0000
0000
0000
0000
0000
0000
0000
0000
0000
0000
0000
0000
0000
0000
0000
;

//---------------dance-single - ----------------
#NOTES:
     dance-single:
     :
     Medium:
     4:
     0.266,0.416,0.033,0.155,0.000,151.000,3.000,14.000,0.000,0.000:
0000
0000
0000
0000
,
0000
0000
0000
0000
0000
0000
0100
0010
,
0100
0000
0010
0010
,
0010
0010
0100
0000
,
0010
0100
0000
0001
,
0010
0000
1000
0100
,
0000
0000
0010
0000
,
0010
0100
0000
0000
,
0001
0000
0000
0000
,
0000
0000
1000
0000
,
0100
0010
0000
0000
,
1000
0000
0000
0100
,
0000
0000
1000
0000
,
0010
0100
0000
0000
,
0010
0000
0000
0001
,
0000
0000
0001
0000
,
0100
0010
0000
0100
,
0010
0000
0010
0100
,
0000
0100
0010
0000
,
0000
0000
0200
0000
0000
0000
0000
0300
,
0010
0000
0010
0100
,
0000
0100
0010
0000
,
0000
0001
0000
0010
,
0100
0000
0000
0001
,
0000
0000
2000
0000
,
0000
0000
0000
3000
0100
0000
0010
0000
,
0100
0000
0000
0010
,
0000
0000
0100
0000
,
0010
0010
0100
0100
,
0200
0300
0001
0001
,
1000
0000
1000
0000
0002
0000
0003
0001
,
1000
1001
0010
0100
,
0220
0000
0000
0330
0010
0000
0100
0000
,
0010
0000
0100
0000
0001
0000
0000
0010
,
1000
0000
1000
0000
0000
1000
0001
1000
,
0010
0000
0000
1000
0010
1000
0100
0000
,
0000
1000
0010
0000
1000
0001
1000
0010
,
1000
0100
1000
0000
0010
0000
0100
0000
,
0020
0000
0000
0000
0000
0000
0000
0030
,
0100
0010
0200
0000
,
0000
0000
0000
0300
0001
0000
1000
0000
,
0002
0000
0000
0003
1000
0000
0001
0000
,
1000
0001
2000
0000
,
0000
0000
0000
3000
0010
0000
0100
0000
,
0020
0000
0000
0030
0001
0000
0010
0000
,
0001
0000
0010
0000
0100
0000
0000
0010
,
0100
0000
0100
0000
0000
0100
0010
0100
,
0010
0000
0000
0100
0010
0100
0010
0000
,
0000
0001
1000
0000
1000
0001
1000
0001
,
1000
0001
2002
0000
0000
3003
0010
0000
,
0100
0000
0000
0100
0010
0100
0010
0000
,
0000
0010
0100
0000
0001
0000
0010
0000
,
0001
0010
0100
0010
,
0200
0000
0300
0000
;

//---------------dance-single - Copied from----------------
#NOTES:
     dance-single:
     Copied from:
     Easy:
     2:
     0.146,0.206,0.000,0.022,0.000,90.000,0.000,2.000,0.000,0.000:
0000
0000
0000
0000
,
0000
0000
0000
0000
,
0000
0000
0000
0100
,
0000
0000
0000
0000
,
0000
0010
0000
0000
,
0100
0000
0000
0010
,
0000
0000
0100
0000
,
0000
0002
0000
0003
,
1000
0000
0000
0000
,
0000
0000
0001
0000
,
1000
0001
0000
0001
,
1000
0000
0000
1000
,
0000
0010
0100
0000
,
0010
0100
0000
0010
,
1000
0000
0010
1000
,
0000
0010
1000
0000
,
1000
0001
0000
0001
,
0100
0000
0010
0100
,
0000
0100
0001
0000
,
0010
0100
0000
0000
,
0100
0000
0000
0010
,
0000
0100
0010
0000
,
0000
0010
0000
0000
,
1000
0000
0000
0001
,
0000
0000
0010
0000
,
0000
0000
0000
0000
,
0100
0000
0000
0000
,
0000
0000
0010
0000
,
0000
0000
0000
0000
,
0100
0000
0000
0000
,
0000
0000
0000
0000
0010
0000
0000
0010
,
0100
0100
0000
0000
,
0010
0000
0000
0000
,
0000
0000
0010
0000
,
0000
0100
0000
0010
,
0100
0000
0000
0010
,
0000
0100
0020
0000
,
0000
0030
0010
0010
,
0010
0000
0000
0000
,
0100
0100
0100
0000
,
0000
0000
0010
0010
,
0010
0000
1000
1000
,
1000
0001
0001
0000
,
0000
0000
0010
0010
,
0010
0000
0100
0100
,
0100
0100
0010
0000
,
0010
0010
0000
0000
,
0100
0000
0000
0010
,
0000
0000
0100
0000
,
0000
0010
0000
0000
,
0100
0000
0000
0001
,
0000
0000
1000
0000
,
0001
0000
1000
0000
,
0001
0000
0000
0000
;

//---------------dance-single - ----------------
#NOTES:
     dance-single:
     :
     Beginner:
     1:
     0.094,0.177,0.000,0.022,0.000,57.000,0.000,2.000,0.000,0.000:
0000
0000
0000
0000
,
0000
0000
0000
0000
,
0000
0000
0000
0000
,
0000
0000
0010
0000
,
0000
0000
0000
0000
,
1000
0000
0000
0000
,
0000
0000
0001
0000
,
0000
0000
0000
0000
,
1000
0000
0000
0000
,
0000
0000
0010
0000
,
0000
0000
0000
0000
,
0001
0000
0000
0000
,
0000
0000
0100
0000
,
0000
0000
0000
0000
,
0010
0000
0000
0000
,
0000
0000
1000
0000
,
0000
0000
0000
0000
,
0010
0000
0000
0000
,
0000
0000
0100
0000
,
0000
0000
0000
0000
,
0010
0000
0000
0100
,
0000
0000
0001
0000
,
0000
0010
0000
0000
,
0100
0000
0000
0010
,
0000
0000
0100
0000
,
0000
0000
0000
0000
,
0000
0010
0000
0010
,
0000
0100
0100
0000
,
0010
0010
0000
0000
,
0100
0000
0000
0010
,
0000
0000
0100
0000
,
0010
0100
0001
1000
,
0001
0000
0000
0010
,
0000
0000
0100
0000
,
0000
0001
0000
0000
,
0010
0000
0000
0001
,
0000
0010
0100
0000
,
0000
0000
0010
0010
,
0010
0000
0000
0000
,
0000
0000
0000
0000
,
0000
0000
0010
0010
,
0010
0000
0000
0000
,
0000
0000
0000
0000
,
0000
0000
0010
0000
,
0000
0000
0000
0100
,
0000
0000
0010
0000
,
0000
0100
0000
0000
,
0010
0000
0000
0100
,
0000
0000
0020
0000
,
0000
0000
0030
0000
,
0100
0000
0000
0010
,
0000
0001
1000
0000
,
0000
0000
0000
0000
,
0020
0030
0000
0000
;
